WWE SmackDown 2019 12 27 540p WEBRIP x264-WH

General
Complete name : WWE.SmackDown.2019.12.27.540p.WEBRIP.x264-WH.mp4
Format : MPEG-4
Format profile : Base Media
Codec ID : isom
File size : 1.93 GiB
Duration : 1h 27mn
Overall bit rate : 3 151 Kbps

Video
ID : 1
Format : AVC
Format/Info : Advanced Video Codec
Format profile : [email protected]
Format settings, CABAC : No
Format settings, ReFrames : 2 frames
Codec ID : avc1
Codec ID/Info : Advanced Video Coding
Duration : 1h 27mn
Bit rate mode : Variable
Bit rate : 3 000 Kbps
Width : 960 pixels
Height : 540 pixels
Display aspect ratio : 16:9
Frame rate mode : Constant
Frame rate : 60.000 fps
Color space : YUV
Chroma subsampling : 4:2:0
Bit depth : 8 bits
Scan type : Progressive
Bits/(Pixel*Frame) : 0.096
Stream size : 1.83 GiB (95%)
Writing library : x264 core 142
Language : English

Audio
ID : 2
Format : AAC
Format/Info : Advanced Audio Codec
Format profile : LC
Codec ID : 40
Duration : 1h 27mn
Bit rate mode : Variable
Bit rate : 152 Kbps
Maximum bit rate : 192 Kbps
Channel(s) : 2 channels
Channel positions : Front: L R
Sampling rate : 44.1 KHz
Compression mode : Lossy
Stream size : 95.5 MiB (5%)
Language : English

https://1fichier.com/?nngb6gg837orziw5jpcr
https://anonfile.com/Z3j946J4n4
https://dl.bdupload.in/oivc7w2g5h9r
https://clicknupload.org/g9wiullix1dn
https://dailyuploads.net/pday4tlrfknq
https://ddl.to/jrdqvl3nd56o
http://dl.free.fr/uhOFZtxop
https://dropapk.to/blisu5eym3y8
https://earn4files.com/gkz7ttch81qh
https://filerio.in/syghw2blsbab
http://filestore.to/?d=4CUG1EC4SZ
https://fileup.cc/4t7qeya2gcsf
https://mixloads.com/wd8pce990o43
https://rockfile.co/j1t68cv6w8wk.html
https://speed-down.org/bksdm4v8ip1x
https://turbobit.net/f4ws8kf8m9xj.html
https://upload.ac/p8mc3zuk1zp0
https://uptobox.com/9jrsdultxc2j
https://uptomega.com/n8ury2ie4sea
https://userscloud.com/k9jhqjc8ao78
https://uploadgig.com/file/download/C092f502519c762b
https://multiup.org/download/5413d0680906c42c76655cc98a0f5bc1
https://rapidgator.net/file/49b66ef9e492f1cb55227aa66a44932c