The Ultimate Unofficial Udemy  Online Course Creation Guide
The Ultimate Unofficial Udemy Online Course Creation Guide
WEBRip | English | MP4 | 1280 x 720 | AVC ~1091 Kbps | 30 fps
AAC | 128 Kbps | 44.1 KHz | 2 channels | ~4 hours | 1.74 GB
Genre: eLearning Video / Self Improvement
Learn the tips and tricks of one of Udemy’s top instructors – how to create online courses that sell. (Unofficial)


What You Get:
Choose the best topic for you to teach, and understand how to beat the competition
Create a marketing plan to launch and continually promote your course
Optimize your course landing page for SEO
Create talking head videos with clear audio and crisp video
Create visually interesting screencast videos
Create a launch plan to maximize the impact of your new course release
License your course to other platforms to generate more revenue
Transition responsibly to creating courses on a full-time basis

Description
Here’s the truth: the vast majority of instructors on Udemy aren’t having the impact they desired. But many instructors are successfully making a lucrative, full-time career from producing online courses on the Udemy platform. You can learn the strategies that will set you apart as an instructor, and position you for that kind of success.

Frank Kane has been producing online courses on Udemy since 2015, and has sold over 400,000 paid course enrollments earning over two million dollars. In this course, Frank shares all the stuff he’s learned the hard way during that time about what works with course creation, and what doesn’t. You’ll learn:

How to choose the course topic that’s best for you, and most likely to succeed

Audo/visual tips for producing clear audio and crisp video for different budget levels

SEO tips to make sure students find your course when they’re looking for your topic

How "flywheel effects" should inform your course marketing and course creation strategy

How to construct a pre-launch checklist to make your course launch as strong as possible

Effective course marketing strategies – as well as strategies to avoid

Maintaining your course to keep it selling for years

How to vet other platforms that want to host your content

Techniques for discouraging piracy of your course

How to get more reviews for your courses

A plan for making Udemy your full-time job, in a responsible manner

This course is intended as a supplement to Udemy’s Teach Hub and resources in your course creation dashboard – it’s all the stuff most instructors only learn through experience. Avoid common mistakes in your strategy as an online instructor, and apply proven best practices used by Udemy’s top instructors right from the start.

Any instructor on the Udemy platform who wants to make more of an impact will benefit from this course. It’s packed with tips, tricks, and lessons learned that can make the difference between a course that flops, and a course that changes the world.

Who this course is for:
Udemy instructors who want to maximize their odds for success, both financial and in terms of impact.

General
Complete name : 1. Screencasts Pt. 1.mp4
Format : MPEG-4
Format profile : Base Media
Codec ID : isom (isom/iso2/avc1/mp41)
File size : 63.4 MiB
Duration : 7 min 13 s
Overall bit rate : 1 227 kb/s
Writing application : Lavf58.12.100
IsTruncated : Yes

Video
ID : 1
Format : AVC
Format/Info : Advanced Video Codec
Format profile : [email protected]
Format settings : CABAC / 4 Ref Frames
Format settings, CABAC : Yes
Format settings, RefFrames : 4 frames
Format settings, GOP : M=4, N=60
Codec ID : avc1
Codec ID/Info : Advanced Video Coding
Duration : 7 min 13 s
Bit rate : 1 091 kb/s
Nominal bit rate : 3 000 kb/s
Width : 1 280 pixels
Height : 720 pixels
Display aspect ratio : 16:9
Frame rate mode : Constant
Frame rate : 30.000 FPS
Color space : YUV
Chroma subsampling : 4:2:0
Bit depth : 8 bits
Scan type : Progressive
Bits/(Pixel*Frame) : 0.039
Stream size : 56.3 MiB (89%)
Writing library : x264 core 148
Encoding settings : cabac=1 / ref=3 / deblock=1:-1:-1 / analyse=0x1:0x111 / me=umh / subme=6 / psy=1 / psy_rd=1.00:0.15 / mixed_ref=1 / me_range=16 / chroma_me=1 / trellis=1 / 8x8dct=0 / cqm=0 / deadzone=21,11 / fast_pskip=1 / chroma_qp_offset=-3 / threads=22 / lookahead_threads=3 / sliced_threads=0 / nr=0 / decimate=1 / interlaced=0 / bluray_compat=0 / constrained_intra=0 / bframes=3 / b_pyramid=2 / b_adapt=1 / b_bias=0 / direct=1 / weightb=1 / open_gop=0 / weightp=2 / keyint=60 / keyint_min=6 / scenecut=0 / intra_refresh=0 / rc_lookahead=60 / rc=cbr / mbtree=1 / bitrate=3000 / ratetol=1.0 / qcomp=0.60 / qpmin=0 / qpmax=69 / qpstep=4 / vbv_maxrate=3000 / vbv_bufsize=6000 / nal_hrd=none / filler=0 / ip_ratio=1.40 / aq=1:1.00

Audio
ID : 2
Format : AAC
Format/Info : Advanced Audio Codec
Format profile : LC
Codec ID : mp4a-40-2
Duration : 7 min 13 s
Bit rate mode : Constant
Bit rate : 128 kb/s
Channel(s) : 2 channels
Channel positions : Front: L R
Sampling rate : 44.1 kHz
Frame rate : 43.066 FPS (1024 SPF)
Compression mode : Lossy
Stream size : 6.62 MiB (10%)
Default : Yes
Alternate group : 1

Download link:

Links are Interchangeable – No Password – Single Extraction