GCW 2019 12 26 Jimmy All The Way 2019 540p / 720p WEB x264-WH

General
Complete name : GCW.2019.12.26.Jimmy.All.The.Way.2019.720p.WEB.x264-WH.mp4
Format : MPEG-4
Format profile : Base Media
Codec ID : isom
File size : 4.72 GiB
Duration : 3h 23mn
Overall bit rate : 3 327 Kbps
Writing application : Lavf58.25.100

Video
ID : 1
Format : AVC
Format/Info : Advanced Video Codec
Format profile : [email protected]
Format settings, CABAC : No
Format settings, ReFrames : 1 frame
Codec ID : avc1
Codec ID/Info : Advanced Video Coding
Duration : 3h 23mn
Bit rate mode : Variable
Bit rate : 3 000 Kbps
Width : 1 280 pixels
Height : 720 pixels
Display aspect ratio : 16:9
Frame rate mode : Variable
Frame rate : 29.970 fps
Minimum frame rate : 29.412 fps
Maximum frame rate : 30.303 fps
Color space : YUV
Chroma subsampling : 4:2:0
Bit depth : 8 bits
Scan type : Progressive
Bits/(Pixel*Frame) : 0.109
Stream size : 4.26 GiB (90%)

Audio
ID : 2
Format : AAC
Format/Info : Advanced Audio Codec
Format profile : LC
Codec ID : 40
Duration : 3h 23mn
Bit rate mode : Constant
Bit rate : 317 Kbps
Channel(s) : 2 channels
Channel positions : Front: L R
Sampling rate : 44.1 KHz
Compression mode : Lossy
Stream size : 461 MiB (10%)

https://we.tl/t-WKZuJeI6l7

https://nitroflare.com/view/A4D0A92DF0BBCF8
https://filefox.cc/he0dv5pfjoqm
https://dropapk.to/s123q43jhe36
https://uptobox.com/ftkqjeac0azf
https://fileup.cc/3nxcwkzu1ujw
https://upload.ac/z6ihb9r2kg1b
https://filerio.in/5wot5nkt6n16
https://1fichier.com/?m3u6d897eh3qujqy65ew
http://dl.free.fr/wKJJYrLSD
https://earn4files.com/q6o3h8hlhunr
https://speed-down.org/jikl442jbfsf
https://anonfile.com/p1K1TeI9nd
https://file.bz/5aCdTcI2n8
https://intoupload.net/9go8lmj0fx4e
https://uploadgig.com/file/download/4a4348e23e9b951E
https://rapidgator.net/file/bb557c1f72cfb60a32f906480aac47df
https://multiup.org/download/3f5f4d6a44709b806dceb4f82449d667

1fichier
https://1fichier.com/?y1800xsbd90lt1zvboum
https://1fichier.com/?ukgnkga79fgekmu9isuq
https://1fichier.com/?1zc06wsu767td8wfyr27
https://1fichier.com/?bejzdx2x0p9m3e2ev4c7
https://1fichier.com/?pgid63hq5paopir4e4tl

anonfile
https://anonfile.com/53wdTdI0nb
https://anonfile.com/Fb48T2I1na
https://anonfile.com/r3y3T5Idn3
https://anonfile.com/36zcT7I8n7
https://anonfile.com/B3y2T6Icne

clicknupload
https://clicknupload.org/y47wbw2dy9vi
https://clicknupload.org/aih3v9msmp9p
https://clicknupload.org/7x1w0xh8uy5j
https://clicknupload.org/f6prsepii9ey
https://clicknupload.org/h6n8gwfhcll2

dailyuploads
https://dailyuploads.net/wsjwalf5iqqm
https://dailyuploads.net/mtznidwuachy
https://dailyuploads.net/b4tjmomok7hy
https://dailyuploads.net/g2bclxiojbnc
https://dailyuploads.net/07a2isuawrj9

ddl.to
https://ddl.to/487op4y244xa
https://ddl.to/bhg12ukivw1l
https://ddl.to/phzw3zhy7jlk
https://ddl.to/hquevgu733js
https://ddl.to/32xwug5r0yny
http://dl.free.fr/ka5BdB0rv

dropapk
https://dropapk.to/voks7lj1v3xp
https://dropapk.to/fuhzdjt2ndz9
https://dropapk.to/peolom8ozm0g
https://dropapk.to/yz3l9p3r94gl
https://dropapk.to/gnsllxdpbank

earn4files
https://earn4files.com/ds7orusvsskr
https://earn4files.com/r1q1i9r4f7w4
https://earn4files.com/sk0mg8na7jc0
https://earn4files.com/8nvsr91j1uoo
https://earn4files.com/te1xsod1org6

file.bz
https://file.bz/P8x2TeIcn4
https://file.bz/r399T4Ien6
https://file.bz/50Q8T5Idn7
https://file.bz/T1SdTcI2n9
https://file.bz/1cO6T0I3n0

filerio
https://filerio.in/ocu2ct3aknkb
https://filerio.in/nghfvu85rwcd
https://filerio.in/0yvccsn5h0ta
https://filerio.in/2hjf1z8i5y3o
https://filerio.in/9w28adsobq6l

filestore
http://filestore.to/?d=L1P2X2BL1V
http://filestore.to/?d=SAY1QKDWJR
http://filestore.to/?d=A0GN92SWTP
http://filestore.to/?d=Q8GU49H73K
http://filestore.to/?d=LCFVLPW1OF

fileup
https://fileup.cc/ccl1eytyl0l3
https://fileup.cc/rckwnnk00f15
https://fileup.cc/466p5i03cswm
https://fileup.cc/hjrnww4xgoba
https://fileup.cc/gclrvaswzcrk

speed-down
https://speed-down.org/dxa9ugtwyu5y
https://speed-down.org/m6vwfrwik6pb
https://speed-down.org/z2vj900yl9le
https://speed-down.org/bac7icjzqk7o
https://speed-down.org/ohvxdi6d7n2e

upload
https://upload.ac/tkie3oj8s91t
https://upload.ac/z3q7gs0w4wm4
https://upload.ac/4222w2v05pv0
https://upload.ac/0cbek5dsxj6t
https://upload.ac/ptjj0rarh3uz

uptobox
https://uptobox.com/glb63i9ym508
https://uptobox.com/knbj3ms3gjs4
https://uptobox.com/p5nml7tedx3y
https://uptobox.com/d06g6uco4987
https://uptobox.com/841xym1q86zh

rapidgator
https://rapidgator.net/file/bf3ddc261f7af4062f6f829ff1d47626
https://rapidgator.net/file/2c9b1e9d8f158f7cf88f1ba4bda5b39e
https://rapidgator.net/file/4e3df27be2e5912323d38c51fd3e993b
https://rapidgator.net/file/26c8bc292d54458c35e62aa1dc4bf3f5
https://rapidgator.net/file/94bdaf7edd33656f96acf558ebf84063

rockfile
https://rockfile.co/iyo12d164hak.html
https://rockfile.co/2x9p53xtojmx.html
https://rockfile.co/5k4qcei6ua8h.html
https://rockfile.co/0j1081l6hujc.html
https://rockfile.co/16aek3ev6i56.html

multiup
https://multiup.org/download/59f70f14f00b9132109fc42ddf144d37
https://multiup.org/download/cf21c79b4c94ea363b66f116dc57af1c
https://multiup.org/download/7137beb452c88351be1557fe332d851d
https://multiup.org/download/1f7898085b6c9371df2e7e849e209e93
https://multiup.org/download/f6f65e5861baa994eface85b100f6f4d

General
Complete name : GCW.2019.12.26.Jimmy.All.The.Way.2019.540p.WEB.x264-WH.mp4
Format : MPEG-4
Format profile : Base Media
Codec ID : isom
File size : 1.88 GiB
Duration : 3h 23mn
Overall bit rate : 1 323 Kbps

Writing application : Lavf56.15.102

Video
ID : 1
Format : AVC
Format/Info : Advanced Video Codec
Format profile : [email protected]
Format settings, CABAC : No
Format settings, ReFrames : 2 frames
Codec ID : avc1
Codec ID/Info : Advanced Video Coding
Duration : 3h 23mn
Bit rate mode : Variable
Bit rate : 1 200 Kbps
Width : 960 pixels
Height : 540 pixels
Display aspect ratio : 16:9
Frame rate mode : Constant
Frame rate : 30.000 fps
Color space : YUV
Chroma subsampling : 4:2:0
Bit depth : 8 bits
Scan type : Progressive
Bits/(Pixel*Frame) : 0.077
Stream size : 1.69 GiB (90%)
Writing library : x264 core 142
Language : English

Audio
ID : 2
Format : AAC
Format/Info : Advanced Audio Codec
Format profile : LC
Codec ID : 40
Duration : 3h 23mn
Bit rate mode : Variable
Bit rate : 127 Kbps
Maximum bit rate : 128 Kbps
Channel(s) : 2 channels
Channel positions : Front: L R
Sampling rate : 44.1 KHz
Compression mode : Lossy
Stream size : 185 MiB (10%)
Language : English

https://filefox.cc/c73hj19xyk0k
https://nitroflare.com/view/BEC5CB102B26AC1
https://1fichier.com/?nwtaa1bft9rijh9p0zhs
https://anonfile.com/T5qeVaIcn9
https://bayfiles.com/FeteVeIfn3
https://clicknupload.org/f1llj0j8m7my
https://dailyuploads.net/k3jhuebxppcc
https://ddl.to/vey442adsfol
http://dl.free.fr/qwmUVFkte
https://dropapk.to/i71c8g1lqx5o
https://earn4files.com/yoy7tr4gcjsn
https://file.bz/x2u7VaI0na
https://filerio.in/9vu1ip6dz069
http://filestore.to/?d=TKS5XEOOLI
https://fileup.cc/i6ue0eldo7gj
https://intoupload.net/e8pbgec2iad5
http://katfile.com/xi1axn8k0hqw
https://multiup.org/download/ff428914ab3503004ef1f18cf4675de9
https://rockfile.co/taltfuqfv57r.html
https://speed-down.org/sh6ibi6yarm4
https://upload.ac/qe89sqtj7n9g
https://uploadgig.com/file/download/a12ee72Aab7E9Be1
https://uptobox.com/uhzy7inonqli