Bloodshot 2020 2160p WEB-DL DD+ 5 1 HEVC-BLUTONiUM

Bloodshot

Ray Garrison, a slain soldier, is re-animated with superpowers.

Year: 2020

Duration: 109 min

Release date: Wednesday 25th March 2020

Genre: Action, Drama, Sci-Fi

IMDB

Bloodshot 2020 2160p WEB-DL DD+ 5 1 HEVC-BLUTONiUM
Bloodshot 2020 2160p WEB-DL DD+ 5 1 HEVC-BLUTONiUM
Bloodshot 2020 2160p WEB-DL DD+ 5 1 HEVC-BLUTONiUM
Bloodshot 2020 2160p WEB-DL DD+ 5 1 HEVC-BLUTONiUM
Complete name                            : Bloodshot.2020.2160p.WEB-DL.DDP5.1.HEVC-BLUTONiUM.mkv
Format                                   : Matroska
Format version                           : Version 4
File size                                : 17.0 GiB
Duration                                 : 1 h 49 min
Overall bit rate                         : 22.2 Mb/s
Encoded date                             : UTC 2020-03-24 13:08:00
Writing application                      : mkvmerge v42.0.0 ('Overtime') 64-bit
Writing library                          : libebml v1.3.10 + libmatroska v1.5.2

Video
ID                                       : 1
Format                                   : HEVC
Format/Info                              : High Efficiency Video Coding
Format profile                           : Main [email protected]@High
Codec ID                                 : V_MPEGH/ISO/HEVC
Duration                                 : 1 h 49 min
Bit rate                                 : 21.6 Mb/s
Width                                    : 3 840 pixels
Height                                   : 2 160 pixels
Display aspect ratio                     : 16:9
Frame rate mode                          : Constant
Frame rate                               : 23.976 (24000/1001) FPS
Color space                              : YUV
Chroma subsampling                       : 4:2:0
Bit depth                                : 10 bits
Bits/(Pixel*Frame)                       : 0.109
Stream size                              : 16.5 GiB (97%)
Default                                  : Yes
Forced                                   : No


Audio
ID                                       : 2
Format                                   : E-AC-3
Format/Info                              : Enhanced AC-3
Commercial name                          : Dolby Digital Plus
Codec ID                                 : A_EAC3
Duration                                 : 1 h 49 min
Bit rate mode                            : Constant
Bit rate                                 : 640 kb/s
Channel(s)                               : 6 channels
Channel layout                           : L R C LFE Ls Rs
Sampling rate                            : 48.0 kHz
Frame rate                               : 31.250 FPS (1536 SPF)
Compression mode                         : Lossy
Stream size                              : 500 MiB (3%)
Language                                 : English
Service kind                             : Complete Main
Default                                  : No
Forced                                   : No