Genral

Complete name : Bloodshot.2020.2160p.SDR.WEB-DL.DD+5.1.x265-Telly
Format : Matroska
Format version : Version 4 / Version 2
File size : 17.0 GiB
Duration : 1 h 49 min
Overall bit rate : 22.2 Mb/s

info: IMDB

Video
ID : 1
Codec ID : V_MPEGH/ISO/HEVC
Duration : 1 h 49 min
Bit rate : 21.1 Mb/s
Width : 3 840 pixels
Height : 2 160 pixels
Display aspect ratio : 16:9
Frame rate mode : Constant
Frame rate : 23.976 (24000/1001) FPS
Color space : YUV
Chroma subsampling : 4:2:0
Bit depth : 10 bits
Bits/(Pixel*Frame) : 0.106
Stream size : 16.1 GiB (95%)
Default : Yes
Forced : No
Color range : Limited
Color primaries : BT.709
Transfer characteristics : BT.709
Matrix coefficients : BT.709

Audio
ID : 2
Codec ID : A_EAC3
Duration : 1 h 49 min
Bit rate mode : Constant
Bit rate : 640 kb/s
Channel(s) : 6 channels
Sampling rate : 48.0 kHz
Frame rate : 187.500 FPS (256 spf)
Compression mode : Lossy
Stream size : 500 MiB (3%)
Language : English
Default : No
Forced : No
Subtitles – English

Source – WebRip Amazon